مسلسلات رمضان 2018 12 دراماBluRay مشاهدة مسلسل طريق الحلقة 4 اون لاين hd مشاهدة مسلسل... | Ayanna Berkshire | Star Trek III The Search For Spock 1984Love Balls | Sucker For Pain (Suicide Squad Soundtrack) [Dariioo Trap Remix] - Imagine Dragons | Robert Wagner

Deadpool 2 2018 720p HDTS x264 AAC [MW]

  • Category Movies
  • Type h.264/x264
  • Language English
  • Total size 776.1 MB
  • Uploaded By moviezworldz
  • Downloads 129
  • Last checked 24 minutes ago
  • Date uploaded 1 hour ago
  • Seeders 35
  • Leechers 95

Deadpool 2

ActionComedyScience Fiction

Wisecracking mercenary Deadpool battles the evil and powerful Cable and other bad guys to save a boy's life.

Infohash : B395B805CD9376A764174EFE80D28F0214EAA556





General
Format : Matroska
Format version : Version 4 / Version 2
File size : 776 MiB
Duration : 1 h 49 min
Overall bit rate : 992 kb/s

Video
ID : 1
Format : AVC
Format/Info : Advanced Video Codec
Format profile : [email protected]
Format settings : CABAC / 4 Ref Frames
Format settings, CABAC : Yes
Format settings, RefFrames : 4 frames
Codec ID : V_MPEG4/ISO/AVC
Duration : 1 h 49 min
Bit rate : 900 kb/s
Width : 1 280 pixels
Height : 510 pixels
Display aspect ratio : 2.510
Frame rate mode : Constant
Frame rate : 29.970 (30000/1001) FPS
Color space : YUV
Chroma subsampling : 4:2:0
Bit depth : 8 bits
Scan type : Progressive
Bits/(Pixel*Frame) : 0.046
Stream size : 700 MiB (90%)
Writing library : x264 core 155 r2893 b00bcaf
Default : Yes
Forced : No

Audio
ID : 2
Format : AAC
Format/Info : Advanced Audio Codec
Format profile : HE-AAC / LC
Format settings : Explicit
Codec ID : A_AAC-2
Duration : 1 h 49 min
Bit rate : 96.0 kb/s
Channel(s) : 2 channels
Channel positions : Front: L R
Sampling rate : 48.0 kHz / 24.0 kHz
Frame rate : 23.438 FPS (1024 SPF)
Compression mode : Lossy
Stream size : 74.1 MiB (10%)
Language : English
Default : Yes
Forced : No













Files:

Deadpool 2 2018 720p HDTS x264 AAC [MW]
  • Deadpool 2 2018 720p HDTS x264 AAC [MW].mkv (776.1 MB)

There are currently no comments. Feel free to leave one :)

Code:

  • udp://tracker.pirateparty.gr:6969/announce
  • udp://tracker.opentrackr.org:1337/announce
  • udp://tracker.vanitycore.co:6969/announce
  • udp://public.popcorn-tracker.org:6969/announce
  • udp://9.rarbg.to:2740/announce
  • udp://9.rarbg.me:2730/announce
  • udp://9.rarbg.com:2790/announce
  • udp://inferno.demonoid.pw:3391/announce
  • udp://tracker.tntvillage.scambioetico.org:2710/announce
  • udp://tracker.opentrackr.org:1337/announce
  • udp://tracker.zer0day.to:1337/announce
  • udp://tracker.coppersurfer.tk:80/announce