Pack Opener for FUT 18 and 16 | Filosófico | Hindi Mp3 SongsWatchFilmy.com | HD Real 720 | JESSICA MAUBOY

Hichki 2018 720p BluRay AAC 5.1 x264 ESub [MW]

  • Category Movies
  • Type Bollywood
  • Language Hindi
  • Total size 933.9 MB
  • Uploaded By moviezworldz
  • Downloads 202
  • Last checked 36 minutes ago
  • Date uploaded 7 hours ago
  • Seeders 15
  • Leechers 36

Hichki

DramaComedy

Hichki presents a positive and inspiring story about a woman who turns her biggest weakness into her biggest strength.

Infohash : 41EA414D549DE637B743AE78FC162136CED98491





General
Format : Matroska
Format version : Version 4 / Version 2
File size : 934 MiB
Duration : 1 h 57 min
Overall bit rate : 1 111 kb/s

Video
ID : 1
Format : AVC
Format/Info : Advanced Video Codec
Format profile : [email protected]
Format settings : CABAC / 6 Ref Frames
Format settings, CABAC : Yes
Format settings, RefFrames : 6 frames
Codec ID : V_MPEG4/ISO/AVC
Duration : 1 h 57 min
Bit rate : 950 kb/s
Width : 1 280 pixels
Height : 532 pixels
Display aspect ratio : 2.40:1
Frame rate mode : Constant
Frame rate : 24.000 FPS
Color space : YUV
Chroma subsampling : 4:2:0
Bit depth : 8 bits
Scan type : Progressive
Bits/(Pixel*Frame) : 0.058
Stream size : 795 MiB (85%)
Writing library : x264 core 155 r2893 b00bcaf
Default : Yes
Forced : No

Audio
ID : 3
Format : AAC
Format/Info : Advanced Audio Codec
Format profile : HE-AAC / LC
Format settings : Explicit
Codec ID : A_AAC-2
Duration : 1 h 57 min
Bit rate : 159 kb/s
Channel(s) : 6 channels
Channel positions : Front: L C R, Side: L R, LFE
Sampling rate : 48.0 kHz / 24.0 kHz
Frame rate : 23.438 FPS (1024 SPF)
Compression mode : Lossy
Stream size : 133 MiB (14%)
Language : Hindi
Default : Yes
Forced : No

Text
ID : 2
Format : VobSub
Muxing mode : zlib
Codec ID : S_VOBSUB
Codec ID/Info : Picture based subtitle format used on DVDs
Duration : 1 h 51 min
Bit rate : 4 974 b/s
Count of elements : 1396
Stream size : 3.98 MiB (0%)
Default : Yes
Forced : No

Menu
00:00:00.000 : en:00:00:00.000
00:01:52.167 : en:00:01:52.083
00:04:35.458 : en:00:04:35.333
00:06:49.458 : en:00:06:49.333
00:12:32.167 : en:00:12:32.125
00:19:50.417 : en:00:19:50.333
00:28:04.417 : en:00:28:04.417
00:33:05.750 : en:00:33:05.625
00:36:43.625 : en:00:36:43.625
00:45:10.208 : en:00:45:10.208
00:53:09.875 : en:00:53:09.875
00:58:55.708 : en:00:58:55.708
01:05:11.833 : en:01:05:11.708
01:08:08.708 : en:01:08:08.708
01:16:45.625 : en:01:16:45.583
01:25:29.917 : en:01:25:29.917
01:30:20.458 : en:01:30:20.375
01:32:18.750 : en:01:32:18.667
01:40:51.083 : en:01:40:51.083
01:51:32.167 : en:01:51:32.125
01:54:05.458 : en:01:54:05.417













Files:

Hichki 2018 720p BluRay AAC 5.1 x264 ESub [MW]
  • Hichki 2018 720p BluRay AAC 5.1 x264 ESub [MW].mkv (933.9 MB)

There are currently no comments. Feel free to leave one :)

Code:

  • udp://tracker.pirateparty.gr:6969/announce
  • udp://tracker.opentrackr.org:1337/announce
  • udp://tracker.vanitycore.co:6969/announce
  • udp://public.popcorn-tracker.org:6969/announce
  • udp://9.rarbg.to:2740/announce
  • udp://9.rarbg.me:2730/announce
  • udp://9.rarbg.com:2790/announce
  • udp://inferno.demonoid.pw:3391/announce
  • udp://tracker.tntvillage.scambioetico.org:2710/announce
  • udp://tracker.opentrackr.org:1337/announce
  • udp://tracker.zer0day.to:1337/announce
  • udp://tracker.coppersurfer.tk:80/announce