Privacy Policy | Cracking Zone | TéléchargerOboreru Knife | Watch movie | TV-Series

Revenge 2017 1080p WEB-DL DD 5.1 x264 ESub [MW]

  • Category Movies
  • Type HD
  • Language English
  • Total size 1.9 GB
  • Uploaded By moviezworldz
  • Downloads 0
  • Last checked 6 minutes ago
  • Date uploaded 6 minutes ago
  • Seeders 0
  • Leechers 0

Infohash : D700FCAADCE3E6230E5C60BEE903E7F240AE4F07





General
Format : Matroska
Format version : Version 4 / Version 2
File size : 1.93 GiB
Duration : 1 h 48 min
Overall bit rate : 2 549 kb/s


Video
ID : 1
Format : AVC
Format/Info : Advanced Video Codec
Format profile : [email protected]
Format settings : CABAC / 4 Ref Frames
Format settings, CABAC : Yes
Format settings, RefFrames : 4 frames
Codec ID : V_MPEG4/ISO/AVC
Duration : 1 h 48 min
Bit rate : 2 200 kb/s
Width : 1 916 pixels
Height : 808 pixels
Display aspect ratio : 2.40:1
Frame rate mode : Constant
Frame rate : 23.976 (24000/1001) FPS
Color space : YUV
Chroma subsampling : 4:2:0
Bit depth : 8 bits
Scan type : Progressive
Bits/(Pixel*Frame) : 0.059
Stream size : 1.64 GiB (85%)
Writing library : x264 core 155 r2893 b00bcaf
Default : Yes
Forced : No

Audio
ID : 3
Format : AC-3
Format/Info : Audio Coding 3
Codec ID : A_AC3
Duration : 1 h 48 min
Bit rate mode : Constant
Bit rate : 384 kb/s
Channel(s) : 6 channels
Channel positions : Front: L C R, Side: L R, LFE
Sampling rate : 48.0 kHz
Frame rate : 31.250 FPS (1536 SPF)
Bit depth : 16 bits
Compression mode : Lossy
Stream size : 298 MiB (15%)
Language : English
Service kind : Complete Main
Default : Yes
Forced : No

Text
ID : 2
Format : UTF-8
Codec ID : S_TEXT/UTF8
Codec ID/Info : UTF-8 Plain Text
Duration : 1 h 40 min
Bit rate : 9 b/s
Count of elements : 210
Stream size : 6.65 KiB (0%)
Language : English
Default : Yes
Forced : No

Menu
00:00:00.000 : en:Chapter 1
00:09:51.674 : en:Chapter 2
00:14:02.925 : en:Chapter 3
00:23:57.144 : en:Chapter 4
00:37:53.396 : en:Chapter 5
00:58:20.497 : en:Chapter 6
01:25:53.899 : en:Chapter 7
01:45:10.846 : en:Chapter 8












Files:

Revenge 2017 1080p WEB-DL DD 5.1 x264 ESub [MW]
  • Revenge 2017 1080p WEB-DL DD 5.1 x264 ESub [MW].mkv (1.9 GB)

There are currently no comments. Feel free to leave one :)

Code:

  • udp://tracker.pirateparty.gr:6969/announce
  • udp://tracker.opentrackr.org:1337/announce
  • udp://tracker.vanitycore.co:6969/announce
  • udp://public.popcorn-tracker.org:6969/announce
  • udp://9.rarbg.to:2710/announce
  • udp://9.rarbg.me:2730/announce
  • udp://9.rarbg.com:2800/announce
  • udp://inferno.demonoid.pw:3391/announce
  • udp://tracker.tntvillage.scambioetico.org:2710/announce
  • udp://tracker.opentrackr.org:1337/announce
  • udp://tracker.zer0day.to:1337/announce
  • udp://tracker.coppersurfer.tk:80/announce